Répondre à la discussion
Affichage des résultats 1 à 4 sur 4

impossible de relire une video mp4



  1. #1
    hotto

    Unhappy impossible de relire une video mp4


    ------

    Bonjour à tous
    J'ai un soucis avec une video que je ne peux plus ouvrir avec Media player ou vlc ...
    Je pouvais la visionner sans probleme et j'ai voulu la renommer (tel xxxx.mp4)...
    Depuis je ne peux plus la lire et médiaplayer me dit qu'il a rencontré un probleme ou vlc la lit sans son ni images...
    J'ai essayé yodot mais il me dit qu'il y a un format inconnu ....

    Je vous transmet l'info du média par piece jointe.

    Merci de votre aide , que puis je faire ?

    Hotto

    -----
    Fichiers attachés Fichiers attachés

  2. Publicité
  3. #2
    gienas
    Modérateur

    Re : impossible de relire une video mp4

    Bonjour hotto et tout le groupe

    Citation Envoyé par hotto Voir le message
    ... J'ai un soucis avec une vidéo que je ne peux plus ouvrir ...
    Bienvenue au club.

    C'est le genre de problème qui arrive tous les jours, quand on "touche" un peu à de la vidéo.

    Citation Envoyé par hotto Voir le message
    ... Je pouvais la visionner sans problème ...
    J'en conclus que ce n'est plus possible, quoi que tu fasses. As-tu toujours ton original?

    Citation Envoyé par hotto Voir le message
    ... j'ai voulu la renommer (tel xxxx.mp4) ...
    Je le fais aussi, et cela ne fonctionne pas toujours ni partout. Quelle était son extension avant ta modif?

    Citation Envoyé par hotto Voir le message
    ... Depuis je ne peux plus la lire et médiaplayer ...
    As-tu essayé de lui redonner son extension d'origine, pour "voir"? (si tu reviens bien à la situation antérieure)

    Citation Envoyé par hotto Voir le message
    ... Je pouvais la visionner sans problème ...
    Était-ce vrai aussi bien pour mediaplayer et VLC?

    Citation Envoyé par hotto Voir le message
    ... vlc la lit sans son ni images ...
    C'est ce qui motive ma question précédente. On doit pouvoir adapter les codecs, car les problèmes se situent là. Parfois, VLC "demande" des mises à jour, et les versions n'ont pas toutes le même comportement.

    Citation Envoyé par hotto Voir le message
    ... yodot mais il me dit qu'il y a un format inconnu ...
    Je ne connais pas.

    Il serait intéressant de connaître l'origine de cette vidéo. Parfois, un recodage est nécessaire pour qu'il devienne autre chose qu'"exotique".

  4. #3
    hotto

    Re : impossible de relire une video mp4

    Bonjour Gienas,et à tous,
    L'extension d'origine était similaire à savoir du .mp4...
    Cette vidéo d'une visio conférence a été récupérer sur internet mais je n'ai plus accès à ce site , et donc coincé...
    J'ai essayer de recopier le nom d'origine (pas certain à 100/100) lorsque ça fonctionnait mais ça ne marche pas ...
    Quelle démarche à suivre pour faire revivre cette vidéo ...Je vais joindre ici une vidéo similaire qui vient du méme site internet mais qui marche sans problème ?Où est la différence , je ne comprends pas ?
    Merci encore..
    Hotto
    Fichiers attachés Fichiers attachés

  5. #4
    gienas
    Modérateur

    Re : impossible de relire une video mp4

    Bonjour à tous

    Pas d'idée.

    En plus de ma demande sur "l'origine" du fichier, elle était aussi "as-tu encore une copie qui n'aurait pas subi de renommage pour le cas où cette opération ait altéré les données et/ou sa lecture sur une certaine machine l'avait altéré.

    Si j'avais un tel problème, je tenterais de le réencoder, s'il est accepté, par un programme de montage. Je fais cela sur Première Element.

    J'ai recopié ton fichier txt ici, avec les balises code, qui le rendent plus facile à lire.

    Code:
    General
    Complete name                            : D:\golf\one plan swing\SEMINAR\Feb13webinar.mp4
    Format                                   : MPEG-4
    Format profile                           : Base Media / Version 2
    Codec ID                                 : mp42
    File size                                : 193 MiB
    Duration                                 : 1h 20mn
    Overall bit rate mode                    : Variable
    Overall bit rate                         : 333 Kbps
    Encoded date                             : UTC 2013-03-04 20:39:28
    Tagged date                              : UTC 2013-03-04 20:47:14
    Writing application                      : HandBrake 0.9.8 2012071800
    
    Video
    ID                                       : 1
    Format                                   : AVC
    Format/Info                              : Advanced Video Codec
    Format profile                           : Main@L3.1
    Format settings, CABAC                   : Yes
    Format settings, ReFrames                : 4 frames
    Codec ID                                 : avc1
    Codec ID/Info                            : Advanced Video Coding
    Duration                                 : 1h 20mn
    Bit rate mode                            : Variable
    Bit rate                                 : 208 Kbps
    Width                                    : 1 280 pixels
    Height                                   : 696 pixels
    Display aspect ratio                     : 1.85:1
    Frame rate mode                          : Constant
    Frame rate                               : 29.970 fps
    Color space                              : YUV
    Chroma subsampling                       : 4:2:0
    Bit depth                                : 8 bits
    Scan type                                : Progressive
    Bits/(Pixel*Frame)                       : 0.008
    Stream size                              : 120 MiB (62%)
    Writing library                          : x264 core 120
    Encoding settings                        : cabac=1 / ref=1 / deblock=1:0:0 / analyse=0x1:0x111 / me=hex / subme=2 / psy=1 / psy_rd=1.00:0.00 / mixed_ref=0 / me_range=16 / chroma_me=1 / trellis=0 / 8x8dct=0 / cqm=0 / deadzone=21,11 / fast_pskip=1 / chroma_qp_offset=0 / threads=12 / sliced_threads=0 / nr=0 / decimate=1 / interlaced=0 / bluray_compat=0 / constrained_intra=0 / bframes=3 / b_pyramid=2 / b_adapt=1 / b_bias=0 / direct=1 / weightb=1 / open_gop=0 / weightp=1 / keyint=300 / keyint_min=30 / scenecut=40 / intra_refresh=0 / rc_lookahead=10 / rc=crf / mbtree=1 / crf=20.0 / qcomp=0.60 / qpmin=3 / qpmax=69 / qpstep=4 / ip_ratio=1.40 / aq=1:1.00
    Encoded date                             : UTC 2013-03-04 20:39:28
    Tagged date                              : UTC 2013-03-04 20:47:13
    Color primaries                          : BT.709
    Transfer characteristics                 : BT.709
    Matrix coefficients                      : BT.709
    
    Audio
    ID                                       : 2
    Format                                   : AAC
    Format/Info                              : Advanced Audio Codec
    Format profile                           : LC
    Codec ID                                 : 40
    Duration                                 : 1h 20mn
    Bit rate mode                            : Variable
    Bit rate                                 : 120 Kbps
    Maximum bit rate                         : 153 Kbps
    Channel count                            : 2 channels
    Channel positions                        : Front: L R
    Sampling rate                            : 44.1 KHz
    Compression mode                         : Lossy
    Delay relative to video                  : 67ms
    Stream size                              : 69.6 MiB (36%)
    Language                                 : English
    Encoded date                             : UTC 2013-03-04 20:39:28
    Tagged date                              : UTC 2013-03-04 20:47:13

  6. A voir en vidéo sur Futura

Discussions similaires

  1. Impossible lire vidéo
    Par mécano41 dans le forum Internet - Réseau - Sécurité générale
    Réponses: 4
    Dernier message: 25/06/2012, 09h20
  2. Impossible de jouer au moindre jeu vidéo
    Par LicenceXP dans le forum Matériel - Hardware
    Réponses: 15
    Dernier message: 21/07/2009, 15h05
  3. lecture vidéo TF1 impossible
    Par afrodeau dans le forum Logiciel - Software - Open Source
    Réponses: 0
    Dernier message: 04/05/2008, 12h28
  4. Impossible de supprimer une vidéo.
    Par nonan dans le forum Logiciel - Software - Open Source
    Réponses: 10
    Dernier message: 24/07/2006, 22h31
  5. impossible de lire les fichiers vidéo sur le net help me......
    Par renaud54 dans le forum Internet - Réseau - Sécurité générale
    Réponses: 0
    Dernier message: 04/11/2005, 17h21
Découvrez nos comparatifs produits sur l'informatique et les technologies.